当前位置:网站首页 > 影音资源 > 电影 > 正文

[电影] 托尔:雷神 Thor.God.of.Thunder.2022.1080p.WEBRip.DD5.1.x264-NOGRP 4.33GB

作者:CC下载站日期:2022-07-18浏览:135分类:电影


◎标  题 托尔雷神
◎片  名 Thor: God of Thunder
◎年  代 2022
◎产  地 美国
◎类  别 动作 / 奇幻
◎语  言 英语
◎IMDb链接 https://www.imdb.com/title/tt21053530/
◎豆瓣链接 https://movie.douban.com/subject/35954312/
◎片  长 87分钟
◎演  员 弗农·威尔斯 Vernon Wells
       Eva Ceja Eva Ceja
       泰勒·克里斯托弗 Tyler Christopher

◎简  介

  Thor's villainous uncle Loki has escaped Asgard to search for Yggdrasil - The Tree of the Nine Realms. The tree holds the power of the Universe and is hidden away on Earth. With the help of giant wolf god Fenrir, Loki plans to destroy the tree and replant it in his image, giving him dominion over all. Now Thor must follow Loki to Earth to wage an epic battle that will hold the ...


Video
ID                                       : 1
Format                                   : AVC
Format/Info                              : Advanced Video Codec
Format profile                           : [email protected]
Format settings                          : CABAC / 5 Ref Frames
Format settings, CABAC                   : Yes
Format settings, Reference frames        : 5 frames
Codec ID                                 : V_MPEG4/ISO/AVC
Duration                                 : 1 h 27 min
Bit rate                                 : 6 735 kb/s
Width                                    : 1 914 pixels
Height                                   : 798 pixels
Display aspect ratio                     : 2.40:1
Frame rate mode                          : Constant
Frame rate                               : 23.976 (24000/1001/189150) FPS
Color space                              : YUV
Chroma subsampling                       : 4:2:0
Bit depth                                : 8 bits
Scan type                                : Progressive
Bits/(Pixel*Frame)                       : 0.184
Stream size                              : 4.09 GiB (95%)
Default                                  : Yes
Forced                                   : No
Color range                              : Limited
Color primaries                          : BT.709
Transfer characteristics                 : BT.709
Matrix coefficients                      : BT.709

Audio
ID                                       : 2
Format                                   : AC-3
Format/Info                              : Audio Coding 3
Commercial name                          : Dolby Digital
Codec ID                                 : A_AC3
Duration                                 : 1 h 27 min
Bit rate mode                            : Constant
Bit rate                                 : 384 kb/s
Channel(s)                               : 6 channels
Channel layout                           : L R C LFE Ls Rs
Sampling rate                            : 48.0 kHz
Frame rate                               : 31.250 FPS (1536 SPF)
Compression mode                         : Lossy
Stream size                              : 239 MiB (5%)
Language                                 : English
Service kind                             : Complete Main
Default                                  : Yes
Forced                                   : No


 评论可见

发表评论 后可见


暂无评论,来添加一个吧。

您需要 登录账户 后才能发表评论

取消回复欢迎 发表评论:

请填写验证码